Tuyển tập phim Rạp mới [2010-2011] 1 link dow duy nhất

Xem chủ đề cũ hơn Xem chủ đề mới hơn Go down

topic Tuyển tập phim Rạp mới [2010-2011] 1 link dow duy nhất

Bài gửi by kutekute90 on 01/03/11, 02:12 am


+ Phụ đề tất cả các phim các bạn vô đây tìm và dow nhé, nhớ gõ tên tiếng E phim và tìm sub nào tên giống với bản phim (HD, DVD, DVDrip...): http://subscene.com
+ Cách Dowload: Vô link dow -> click "Regular download" -> click "Download on slow speed" -> đợi đếm ngược về 0 "Wait for Your turn" -> click "Link to the file download" ---> ok!


The Mechanic 2011 - Trừng phạt kẻ ác




Thông tin về Phim:
http://upload-free.com/images/85890277708162365184.png
http://upload-free.com/images/08492492959243849325.png

Code:
Theatre Date    : 28 January 2011(USA)               
IMDB User Ratings: 6.8                                 
Genre            : Action/Drama/Thriller               
IMDB Link        : http://www.imdb.com/title/tt0472399/
                   
VIDEO:-                                                                               
 Format        :  Audio Video Interleave       
 Bitrate      :  971                           
 Codec ID      :  XviD                         
 Resolution    :  640 X 272                     
 Aspect Ratio  :  4:2:0                         
 Frame Rate    :  25.000 fps                   
 Quality Frame :  0.223                         
                                               
Audio:-                                                                                     
 Codec ID      :  MP3                         
 Bitrate      :  128 kbps                     
 Channel(s)    :  2                           
 Sample Rate  :  44.1 KHZ                     
   
Cast:-
Jason Satham          :    Arthur Bishop
 Ben Foster            :    Steve McKenna
 Tony Goldwyn          :    Dean 
 Donald Sutherland      :    Harry McKenna
 
Plot:-
Follows an elite hit man as he teaches his trade to an
apprentice who has a connection to one of his previous
victims.                                                                                       
Screens:-
 http://img341.imageshack.us/img341/6476/ss1b.png
 http://img218.imageshack.us/img218/1433/ss2j.png
 http://img39.imageshack.us/img39/7521/ss3qp.png
 http://img248.imageshack.us/img248/1365/ss4m.png
 http://img201.imageshack.us/img201/1819/ss5s.png

Trailer:
http://www.youtube.com/watch?v=CMklQNn0OH0



Sub Viet:
http://subscene.com/vietnamese/The-Mechanic/subtitle-414506.aspx

The Chronicles of Narnia-The Voyage of the Dawn Treader[2010]R5


Thông tin về Phim:
http://cB4.upanh.com/19.127.25964743.3aS0/bomtan.png
Code:
Theatre Date    : 10 December2010(USA)               
IMDB User Ratings: 6.7                                 
Genre            : Family/Adventure/Fantasy           
IMDB Link        : http://www.imdb.com/title/tt0980970/
                                                       
 VIDEO:-                                               
                                                   
  Format        :  Audio Video Interleave             
  Bitrate      :  764                                 
  Codec ID      :  XviD                               
  Resolution    :  640 X 352                           
  Aspect Ratio  :  16:9                               
  Frame Rate    :  25.000 fps                         
  Quality Frame :  0.136                               

 Audio:-                                               
                                                       
  Codec ID      :  MP3                               
  Bitrate      :  128 kbps                           
  Channel(s)    :  2                                 
  Sample Rate  :  48.0 KHZ                           
                                                                                                                 
Screens:-
 http://img513.imageshack.us/img513/8702/ss2sw.png
 http://img59.imageshack.us/img59/1084/ss1fw.png
 http://img341.imageshack.us/img341/9877/ss3u.png
 http://img64.imageshack.us/img64/7838/ss4k.png
 http://img607.imageshack.us/img607/5950/ss5f.png

Trailer:
http://www.youtube.com/watch?v=JlMJAOAWk-M



Sub Viet:
http://subscene.com/vietnamese/The-Chronicles-of-Narnia-The-Voyage-of-the-Dawn-Treader/subtitle-413087.aspx


Bom tấn nóng bỏng tay 2011 - S.W.A.T Firefight[2011]BRRip XviD



Code:
Theatre Date    : 1 March 2011(USA)                   
IMDB User Ratings: Awaiting                           
Genre            : Action                             
IMDB Link        : http://www.imdb.com/title/tt1621429/

VIDEO:-

 Format        :  Audio Video Interleave
 Bitrate      :  965                 
 Codec ID      :  XviD                 
 Resolution    :  640 X 352           
 Aspect Ratio  :  16:9                 
 Frame Rate    :  23.976 fps           
 Quality Frame :  0.179

Audio:- 
 Codec ID      :  MP3                 
 Bitrate      :  128 kbps           
 Channel(s)    :  2                   
 Sample Rate  :  48.0 KHZ

 Encoder      :  SaM                 
 File Size    :  700 MiB             
 Duration      :  01h28m             
 Source        :  Blu-Ray CHD         
 Release Date  :  16-02-2011         
 Language      :  English             
 Subtitles    :  NA                 
 Sample        :  Yes

Cast:-
Gabriel Macht          :    Paul Cutler 
Robert Patrick        :    Walter Hatch 
Kristanna Loken        :    Rose Walker 
Nicholas Gonzalez      :    Justin Kellogg
Plot:-

Transferred to Detroit to put a local SWAT team through
a training regimen,LAPD Lieutenant Paul Cutler finds him
self the target of a homicidal genius who is protected 
by government officials                               
 
Screens:-
 http://img840.imageshack.us/img840/6181/ss1bo.png
 http://img412.imageshack.us/img412/9211/ss2by.png
 http://img218.imageshack.us/img218/328/ss3h.png
 http://img580.imageshack.us/img580/1922/ss4vr.png
 http://img152.imageshack.us/img152/9918/ss5c.png

Trailer Phim :
http://www.youtube.com/watch?v=5__vU_f3M0o



Sub việt:
http://subscene.com/SWAT-Firefight-SWAT/subtitles-86901.aspx

[Đầy cảm động] 127 hours sinh tử DBRip 1 link



http://cB4.upanh.com/19.0.25850433.qQl0/s.png

Trailer:
http://www.youtube.com/watch?v=OlhLOWTnVoQ



Sub Viet:
http://subscene.com/vietnamese/127-Hours-127-Hours-3D/subtitle-412226.aspx


Gừng càng già càng cay - Red 2010 DvdSCR Xvid





Trailer hay:
http://www.youtube.com/watch?v=RkrRQ626oho



Sub Viet:
mediafire.com ?s6ok9p3y5has2m4


Reign of Assassins 2010








Length.......: 115 Mins
ViDEO & AUDiO
Source.......: DVD
Video Codec..: XviD Audio Formate: AC3
Format.......: AVI Bitrate .....: 192Kbps
Resolution...: 720x304 Channels.....: 2ch
Video Bitrate: 1607Kbps Language.....: Mandarin
Frame Rate...: 23.976 fps Subtitles....: Chs | Eng (subbed)

Trailer:
Code:
http://www.youtube.com/watch?v=HkzTyMkmlfI&feature=related

Download Reign of Assassins 2010 1.45G DVDRip + link nhanh full movie

Link dow nhanh 4 part:

Or 1 link full movie:


Sub Viet: http://subscene.com/Reign-Of-Assassins-Jian-Yu/subtitles-84970.aspx


Nụ hôn thần chết "Kiss Of The Death" (Phần 1) DVDrip 1 link full



Thông tin về phim:
http://cB6.upanh.com/19.0.25540925.sQx0/thn.png



+ Dowload: Vao link dow -> click "Regular download" -> click "Download on slow speed" -> doi dem nguoc ve 0 "Wait for Your turn" -> click "Link to the file download" ---> ok!

Or:


Giải cứu thần chết (Phần 2) DVDrip 1 link full



Thông tin về phim:
http://cB6.upanh.com/19.0.25542315.wrr0/bn.png


Code:
http://letitbit.net/download/54219.5f91ced0022ffa3e81582958602f/GiaiCuuThanChet.2009.DVDRipXvid.html

Phim Việt Nam, Không Cân Sức... 18+



Nội dung Phim:
http://cB9.upanh.com/19.0.25468518.O0A0/cansuc.png

Trailer phim cuc hay:
http://www.youtube.com/watch?v=aRbS40-D9NY&feature=player_embedded




Công Chúa Teen Và Ngũ Hổ Tướng 2010 dvd bản đẹp



Trailer:
http://www.youtube.com/watch?v=LZ2qACjmK5U



+ Dowload: Vao link dow -> click "Regular download" -> click "Download on slow speed" -> doi dem nguoc ve 0 "Wait for Your turn" -> click "Link to the file download" ---> ok!

[Sub Việt] Triệu Thị Cô Nhi 2010 - Câu chuyện đẫm nước mắt



Nội dung Phim:
http://kenh14.vn/c65/20101109123521871/trieu-thi-co-nhi-cau-chuyen-dam-nuoc-mat-cua-trung-quoc.chn



Sub Việt:
mediafire.com ?g838zpz98g2uze8


Cô nàng lẳng lơ - Easy A BRrip 2010



Movie Info

http://www.imdb.com/title/tt1282140/

[TITLE]…………………….[ Easy A
[DIRECTOR]………………….[ Will Gluck
[RELEASE DATE]………………[ 17 September 2010 (USA)
[FORMAT]:…………………..[ Matroska (MKV)
[GENRE]:……………………[ Comedy | Romance
[NO OF CDs]…………………[ 1
[FILE SIZE]:………………..[ 550MB
[RESOLUTION]:……………….[ 1280x688
[LANGUAGE ]:………………..[ English
[SUBTITLES]:………………..[ English [Softcoded]
[ORIGINAL RUNTIME]:………….[ 01:32:24
[RELEASE RUNTIME]:…………..[ 01:32:24
[ENCODER]:………………….[ ShAaNiG
[SOURCE]:…………………..[ Easy A 2010 720p BluRay x264-METiS
[iMDB RATING]:………………[ 7.7/10

Screens
http://img190.imageshack.us/i/132134478991554.jpg/
http://img528.imageshack.us/i/672814308991626.jpg/
http://img809.imageshack.us/i/421162818991595.jpg/

Trailer:
http://www.youtube.com/watch?v=rget7vbKILU



Sub Viet:
http://subscene.com/vietnamese/Easy-A/subtitle-395567.aspx


Phim về ma cà rồng Let Me In 2010 DVDRip 1 link



Thông tin phim
http://cB0.upanh.com/19.0.25894119.Npq0/ko.png
Trailer:
http://www.youtube.com/watch?v=rdK0FL_o-f0&feature=related



Sub Viet:
mediafire.com ?50hc28l861slmgz


I Spit On Your Grave 2010 [Tiên nữ - hãm hiếp - trả thù]






Code:
Language: English
108 min | XviD @ 1322 Kbps | 640x272 @ 23.976 fps
AC3 - 448 Kbps - 6 channels @ 48.0 KHz | 1.38 GB
Genre: Crime | Thriller
Director: Steven R. Monroe
Cast: Daniel Franzese, Sarah Butler, Chad Lindbergt

ScreenCaps:
 http://img824.imageshack.us/img824/4351/twizspitonyourgraveunrt.jpg
 http://img836.imageshack.us/img836/4351/twizspitonyourgraveunrt.jpg

Trailer:
http://www.youtube.com/watch?v=2zU3U-9B3fE



Sub Viet 2 CD:
http://subscene.com/vietnamese/I-Spit-on-Your-Grave-Unrated/subtitle-405427.aspx


Dòng sông máu - Red River 2011 DVDRip Xvid







Code:
File size : 1.40 GiB
Duration : 1h 17mn
Overall bit rate : 2 590 Kbps

Video
Format : MPEG-4 Visual
Duration : 1h 17mn
Bit rate : 2 322 Kbps
Width : 640 pixels
Height : 270 pixels
Display aspect ratio : 2.35:1
Frame rate : 29.970 fps
Chroma subsampling : 4:2:0
Bit depth : 8 bits
Stream size : 1.26 GiB (90%)

Audio
ID : 1
Format : AC-3
Codec ID : 2000
Duration : 1h 17mn
Bit rate : 256 Kbps
Channel(s) : 2 channels
Channel positions : Front: L R
Sampling rate : 48.0 KHz
Bit depth : 16 bits
Language : English
SCREENS
 http://leetleech.org/images/27408686386260315251.png
 http://leetleech.org/images/54887994787045049430.png
 http://leetleech.org/images/36403687665181931692.png
 http://leetleech.org/images/34060705271083168487.png
 http://leetleech.org/images/68622992425555833737.png

Trailer:
http://www.youtube.com/watch?v=FsAvYk2Nbao



OR LINK NHANH:

Bên kia thế giới 2010 - Hereafter 2010 DVDRip XviD



Thông tin phim:
http://cB8.upanh.com/19.361.26205127.nvW0/kii.png

Trialer:
http://www.youtube.com/watch?v=0XvJwTYnKww

Code:
  Hereafter.DVDRip.XviD-DEFACED   
             
                        release date ...: 02/25/2011     
                        theatre date ...: 10/17/2010     
                        dvd date ...: 03/15/2011     
                        source .....: Retail R1 DVD 
                        runtime ....: 129 min       
                        genre ......: Drama | Fantasy       
           
                        video ......: 1124 Kbps
                        codec ......: XviD
                        resolution .....: 640x272
                        frame rate .....: 23.976 fps
                        audio ......: 5.1 AC3 448kbps
                        subs .......: N/A 
                        discs ......: 2CD
    http://www.imdb.com/title/tt1212419/ 


Movie 2 CD:

+ Dowload: Vao link dow -> click "Regular download" -> click "Download on slow speed" -> doi dem nguoc ve 0 "Wait for Your turn" -> click "Link to the file download" ---> ok!

Jackass 3D 2010 Đốt cháy phòng vé Bắc Mỹ




Code:
Jackass 3D (2010) UNRATED DVDRip XviD - DEFACED
UNRATED DVDRip XviD - DEFACED | AVI | EN | 104 mins | 608x336
Mp3 128 kbs | 693Mb
Genres: Genre : Action / Comedy
IMDB

Plot : Johnny Knoxville and company return for the third installment of their TV show spin-off, where dangerous stunts and
explicit public displays rule.

ScreenCaps:
http://leetleech.org/images/43828119945840895795.jpg


Sub E:
http://subscene.com/english/JACKASS-3D/subtitle-414989.aspx


Chiến binh bí ẩn - The Green Hornet[2011]R5 Line XviD




Code:
Theatre Date    : 14 January 2011(USA)                 
IMDB User Ratings: 6.5                                 
Genre            : Action/Comedy/Crime                 
IMDB Link        : http://www.imdb.com/title/tt0990407/
                                                 
VIDEO:-                                                                                       
 Format        :  Audio Video Interleave         
 Bitrate      :  738                             
 Codec ID      :  XviD                           
 Resolution    :  640 X 256                       
 Aspect Ratio  :  2.500                           
 Frame Rate    :  25.000 fps                     
 Quality Frame :  0.180                           
                                             
Audio:-                                                                                             
 Codec ID      :  MP3                           
 Bitrate      :  112 kbps                       
 Channel(s)    :  2                             
 Sample Rate  :  44.1 KHZ                                             
 File Size    :  700 MiB                       
 Duration      :  01h54m                                               
Cast:-                                           
  Seth Rogen    : Britt Reid/The Green Hornet
  Jay Chou      : Kato                       
  Cameron Diaz  : Lenore Case               
  Tom Wilkinson : James Reid                 
Plot:-
Following the death of his father,Britt Reid,heir to his
father's large company,teams up with his late dad's ass-
istant Kato to become a masked crime fighting team.     

Screens:-
 http://img198.imageshack.us/img198/2775/ss1ch.png
 http://img826.imageshack.us/img826/1177/ss2og.png
 http://img718.imageshack.us/img718/2170/ss3al.png
 http://img199.imageshack.us/img199/9103/ss4w.png
 http://img638.imageshack.us/img638/9918/ss5c.png

Trailer:
http://www.youtube.com/watch?v=9btZIK3Obpg



Sub Viet:
http://subscene.com/vietnamese/The-Green-Hornet/subtitle-415772.aspx


Phim Valentine cực hay các bồ nè, Blue Valentine 2010



Thông tin Phim:
http://upload-free.com/images/37312454018022703797.png

Theatre Date : 29 December 2010(USA)
IMDB User Ratings: 8.1
Genre : Drama/Romance
IMDB Link : http://www.imdb.com/title/tt1120985/

VIDEO:-
Format : Audio Video Interleave
Bitrate : 766
Codec ID : XviD
Resolution : 640 X 368
Aspect Ratio : 16:9
Frame Rate : 23.976 fps
Quality Frame : 0.136

Audio:-
Codec ID : MP3
Bitrate : 96 kbps
Channel(s) : 2
Sample Rate : 48.0 KHZ

Cast:-
Ryan Gosling : Dean
Michelle Williams : Cindy
Faith Wladyka : Frankie
John Doman : Jerry

Screens:-
http://img831.imageshack.us/img831/3644/ss1gk.png
http://img402.imageshack.us/img402/768/ss2vp.png



Sub:
http://subscene.com/Blue-Valentine/subtitles-86400.aspx


Ngày diệt vong - Doomsday 2008 thuyết minh Việt chỉ 399mb



Thông tin Phim:
http://cB1.upanh.com/19.0.25414700.8rf0/diet.png



Bom tấn Thần Tốc - Faster 2010 + Sub Việt



Thông tin Phim:
http://cB5.upanh.com/19.0.25355474.78S0/thantoc.png



Sub Viet:
http://subscene.com/Faster/subtitles-85779.aspx

Bẫy rồng 2009 Ngô Thanh Vân - Johny Trí Nguyễn DVD 1 link



Thông tin Phim:
http://cB4.upanh.com/19.0.24500393.F8s0/bay.png




[Hài tết 2011] Gala cười 2011








Hài tết 2010 bản đẹp cười rụng rốn luôn...






Group ***[2010]DvDrip


PLOT
Herman has a weakness for strip clubs. Donny has a thing for condiments and Tiffany is a newly celibate martial artist. These are Andys new friends after he unsuspectingly follows his dream girl into a sexual addiction recovery group.
LANGUAGE......{ English
RUNTiME.....{ 1:32:20
AUDiO.......{ MP3 128Kb/s 48000Hz
...{ XVID 921 Kb/s 23.976FPS
RESOLUTiON....{ 640 x 352
DiSPLAY.......{ 1.818
QUALiTY.......{ 0.171
....{ 701 MB
SOURCE....{ NTSC DVD
RELEASE DATE..{ 24/09/2010
http://img36.imageshack.us/img36/4242/groupsex2010preview.jpg



Vụ Cướp Thế Kỷ - Takers 2010 BDRip



PLOT:
A group of bank robbers find their multi-million dollar plan interrupted
by a hard-boiled detective.
MOViE iNFO:
IMDB___________[ http://www.imdb.com/title/tt1135084/
IMDB RATiNG_____[ 5.4/10
GENRE__________[ Action | Crime | Thriller
MPAA RATiNG____[ PG-13
DiRECTOR_______[ John Luessenhop
RELEASE DATE___[ 27 August 2010 (USA)
AWARDS_________[ 1 win
ViDEO iNFO:
RUNTiME________[ 1:47:06
CODEC__________[ XviD
BiT RATE_________[ 778 Kbps
FPS____________[ 23.976 FPS
RESOLUTiON_____[ 640 x 272
DiSPLAY_________[ 2.35
Q*FRAME________[ 0.186
AUDiO iNFO:
CODEC__________[ MP3
BiT RATE_________[ 128 Kbps
SAMPLiNG RATE__[ 48000Hz
CHANNELS______[ 2
SUBTiTLES________[ English
TOTAL SiZE______[ 701 MB
Screens:
http://img530.imageshack.us/img530/3633/shot0001d.png
http://img692.imageshack.us/img692/9569/shot0004a.png
http://img34.imageshack.us/img34/7407/shot0002k.png
http://img51.imageshack.us/img51/4672/shot0003pv.png
http://img808.imageshack.us/img808/6558/takers2010dvdriptorrent.png


Trailer:
http://www.youtube.com/watch?v=SicGk3-bP58


Sub Việt:
http://subscene.com/vietnamese/Takers/subtitle-396299.aspx


Chôn sống - Buried 2010 480p BDRip XviD AC3


[ RELEASE INFORMATION ]
VIDEO.......: 1720 Kbps ENCODER.....: oZi
AUDIO.......: AC3 5.1 [448 Kbps] SIZE....: 1.45 GB
FRAMERATE...: 23.976 NTSC FILES.......: 1 x AVi
SOURCE......: BDiSC RESOLUTION..: 720x304
LANGUAGE....: English SUBTITLES...: None
[ MOVIE INFORMATION ]
Genre.......: Mystery | Thriller iMDB RATING.: 7.6/10
Runtime.....: 95 mins RT RATING...: 8.6/10
Screenshots:
http://www.leetleech.org/images/53415198823277303314.png
http://www.leetleech.org/images/40825856117625183327.png



Game of Death 2010 DVDSCr XviD



Game of Death (2010) DVDSCR XviD-NYDIC
AVI | English | 1h 22min | 720x304
XviD - 1062kbps | MP3 - 128kbps | 707 MB
Genre: Action | Adventure
IMDB Info
Secret Ops agent Marcus is sent to Detroit to take out an arms dealer and the head of the hedge fund that is
financing him. His CIA backup has other plans and turns on him and it's a fight to survive in a hospital

ScreenCaps:
http://img219.imageshack.us/img219/3935/gameofdeath2010dvdscrxv.jpg


Trailer:
http://www.youtube.com/watch?v=vsQAlUqr6EI



Sub Viet:
http://subscene.com/Game-of-Death/subtitles-85875.aspx

Abandoned [2010] DvDRiP XviD


Theatre Date : 24/August/2010 (USA)
IMDB User Ratings: 5.0/10
Genre : Drama | Mystery | Thriller
IMDB Link : http://www.imdb.com/title/tt1470171/
Release iNFO
VIDEO:-
Format : Audio Video Interleave
Bitrate : 977 kbps
Codec ID : XviD
Resolution : 640 x 324
Aspect Ratio : 1.975
Frame Rate : 23.976 fps
Quality Frame : 0.197
-----------------------------
Audio:-
Codec ID : MP3
Bitrate : 128 kbps CBR
Channel(s) : 2
Sample Rate : 48.0 KHz

Encoder : SureNdrA
File Size : 698 MB
Duration : 1h 28m
Source : NTSC DVD
Release Date : 12-01-2011
Language : English
Subtitles : English
Sample : Yes
PLOT
Mary Walsh delivers boyfriend Kevin to a hospital for
routine outpatient surgery. But when Mary returns to
take him home,he's mysteriously vanished.

ScreenS
http://img607.imageshack.us/img607/5594/abandoned2010dvdripxvid.jpg
http://img703.imageshack.us/img703/7271/abandoned2010dvdripxvids.jpg
http://img641.imageshack.us/img641/5594/abandoned2010dvdripxvid.jpg
http://img703.imageshack.us/img703/5594/abandoned2010dvdripxvid.jpg




And Soon The Darkness 2010 [DVDRip.XviD-miguel] [ENG]


Country.......: USA, Arqentina, France
Genre.....: Thriller, Horror
Date release..: 28.02.2010 [World]
Director......: Marcos Efron
Writers.......: Jennifer Derwingson, Marcos Efron
Duration......: 91 min.
More......: http://www.imdb.com/title/tt1391034
Trailer.......: http://www.imdb.com/video/imdb/vi2266011929
Trailer.......:

Pilot :
When two American girls on a bike trip in a remote part of Argentina split up and one of them goes missing, the other must find her before her worst fears are realized.

Cats :
Amber Heard ... Stephanie
Odette Yustman ... Ellie
Karl Urban ... Michael
Gia Mantegna ... Camila
Adriana Barraza ... Rosamaria
Cesar Vianco ... Calvo
Michel Noher ... Chucho
Luis Sabatini ... Luca
Javier Luna ... Bar Owner
Andrea Verdun ... Waitress
Maria Salome Cari ... Cleaning Woman
Matias Paz Conde ... Skinny Guy
Hugo Miranda ... Man
Esteban Pastrana ... Barman
Jorge Booth ... Hernan

Data Technical :
!!! SAMPLE !!!
Audio.....: English
Subtitles.: English .str, Spanish .str, Romanian .str, Greece .str, Czech .str, Bulgarian .str, Polish .txt
Video.....: XviD 640x272 23.98fps [Video]
Audio.....: MPEG Audio Layer 3 48000Hz stereo 127kbps [Audio]

Screen :
http://img51.imageshack.us/img51/9802/andsoonthedarkness2010s.jpg
http://img441.imageshack.us/img441/9802/andsoonthedarkness2010s.jpg
http://img140.imageshack.us/img140/9802/andsoonthedarkness2010s.jpg
http://img233.imageshack.us/img233/9802/andsoonthedarkness2010s.jpg




Death Race 2 2010 DVDRip


Thông tin phim:
http://cB6.upanh.com/19.434.26280345.zN50/as.png
Death Race 2 DVDRip
-------------------------------------------
Release Name.....: Death Race 2 DVDRip [CyberPiraten]
Release Description..: An origin story for convicted cop killer Frankenstein
Release Date.....: 23th December, 2010
Release By.......: P2P
Genre......: Action | Sci-Fi | Thriller
Video......: XviD | 720�—400 | 4456 Kbps
Audio......: English | AC3 | 6 Channels | 384 Kbps
Directed By....: Joseph Kosinski
Starring.......: Jeff Bridges | Garrett Hedlund | Olivia Wilde
Trailer....: www.imdb.com/video/imdb/vi2099747097/


Sub Việt:
http://subscene.com/vietnamese/Death-Race-2/subtitle-398579.aspx


Nude Nuns with Big Guns.2010.DVDRip.XviD


Genre - Thriller
Year- 2010
IMDb Link - http://www.imdb.com/title/tt1352388/
Size - 719 mb
Length - 1h 22mn
Video - XviD
Resolution - 640 x 352/ 25.00 fps
Audio Language - English
Audio - AC3 / 192 Kbps
PLOT:
Upon taking her vows to become a nun, Sister Sarah is abused, brainwashed and drugged into submission by the corrupt clergy. On the verge of death from a lethal dose of drugs, Sister Sarah receives a message from GOD telling her to take vengeance on all those who did her wrong. Armed with God's will and an arsenal of big guns, she dispenses Judgment Day on her former tormentors. When the church hires the merciless motorcycle gang the "Los Muertos" to track down and kill her they soon realize that this SISTER IS ONE BAD MOTHER.
Screenshots:
http://shareimage.ro/images/0yuwfjsxwvl5rvnqv5kq.png
http://shareimage.ro/images/e2ottfuvyskyb9osun.png
http://shareimage.ro/images/5v3zxujqjwz79cu2o9m.png


Alpha And Omega 2010 DVDRip XviD


THEATRE DATE : 09/17/10 (USA) 2,625, (UK) 391
STORE DATE : 01/14/10
GENRE : Animation | Adventure
RUNTiME : 1 hour 27 minutes
RATiNG : 4.1/10
ViDEO : 960 kbps
AUDiO : 141 kbps 2ch. MP3
RESOLUTiON : 624x352 1.77:1
DiSCS : 1
SUBS : Eng | Spa
ScreenCaps:
http://leetleech.org/images/03613997326587893174.jpg



Phù thủy tập sự - The Sorcerers Apprentice (2010) DVDRip XviD


Format : AVI
Format/Info : Audio Video Interleave
Format profile : OpenDML
File size : 1.31 GiB
Duration : 1h 49mn
Overall bit rate : 1 722 Kbps
Writing application : VirtualDubMod 1.5.10.2 (build 2542/release)
Writing library : VirtualDubMod build 2542/release
Original source form : MAX TORRENTZ
Copyright : SIGISMUNT

Video
ID : 0
Format : MPEG-4 Visual
Format profile : AdvancedSimple@L5
Format settings, BVOP : Yes
Format settings, QPel : No
Format settings, GMC : No warppoints
Format settings, Matrix : Custom
Codec ID : XVID
Codec ID/Hint : XviD
Duration : 1h 49mn
Bit rate : 1 527 Kbps
Width : 720 pixels
Height : 304 pixels
Display aspect ratio : 2.35:1
Frame rate : 23.976 fps
Resolution : 24 bits
Colorimetry : 4:2:0
Scan type : Progressive
Bits/(Pixel*Frame) : 0.291
Stream size : 1.16 GiB (89%)
Writing library : XviD 1.2.1 (UTC 2008-12-04)

Audio
ID : 1
Format : MPEG Audio
Format version : Version 1
Format profile : Layer 3
Codec ID : 55
Codec ID/Hint : MP3
Duration : 1h 49mn
Bit rate mode : Constant
Bit rate : 192 Kbps
Channel(s) : 2 channels
Sampling rate : 48.0 KHz
Resolution : 16 bits
Stream size : 150 MiB (11%)
Alignment : Aligned on interleaves
Interleave, duration : 522 ms (12.51 video frames)
Interleave, preload duration : 216 ms
Writing library : LAME3.98.2

Screens:
http://www.postimg.com/image/24000/23913.jpg
http://www.postimg.com/image/24000/23914.jpg
http://www.postimg.com/image/24000/23915.jpg
http://www.postimg.com/image/24000/23916.jpg

ScreenCaps:
http://www.postimg.com/image/24000/23918.jpg


Trọn bộ Iron Man (2008 + 2010) BRRiP.720p



+ Iron Man (2008)
General
Format: MPEG-4
File size: 720 MB
Release Duration: 2h 06mn 01sec
Overall bit rate: 800 Kbps
Video
Bit rate: 748 Kbps
Width: 1280 pixels
Audio
Bit rate: 48 Kbps
Sample Rate: 44100 Hz
SCREENS
http://img577.imageshack.us/img577/7453/***.png
http://img688.imageshack.us/img688/2549/***.png
http://img263.imageshack.us/img263/8779/***.png
http://img707.imageshack.us/img707/4782/***.png

+ Iron Man 2 (2010)
File size : 728 MiB
Duration : 2h 4mn
Overall bit rate : 816 Kbps
Video
Bit rate : 765 Kbps
Width : 1 280 pixels
Height : 544 pixels
Audio
Bit rate : 48.0 Kbps
SCREENSHOTS:
http://img819.imageshack.us/img819/3155/ironman22010brrip720px2.jpg


+ Iron Man (2008)

+ Iron Man (2010)
Sub Viet:
letitbit.net Iron_Man_2008_2010.rar.html


Machete 2010 dvdrip


TiTLE.....[ Machete
YEAR......[ 2010
GENRE.....[ Action | Comedy | Crime
RUNTiME.......[ 1:44:58
iMDB RATE.....[ 7.3/10 (35,348 votes)
FXG RATE......[ 7.2/10 (2 votes)
iMDB URL......[ http://www.imdb.com/title/tt0985694/

AUDiO.....[ MP3 48000Hz 128 kb/s CBR (2 chnls)
LANGUAGE......[ English
ViDEO.....[ 795 kbps XviD 23.976 FPS
RESOLUTiON....[ 600 x 320
DAR.......[ 1.875 (15:8)
QUALiTY FRAME.[ 0.173
SUBS......[ English
SiZE......[ 700 MB
SOURCE....[ NTSC DVD

RiP.......[ #477
RELEASE DATE..[ 30/12/2010
PLOT SUMMARY
After being betrayed by the organization who hired him, an ex-Federale launches a brutal rampage of revenge against his former boss.

ScreenCaps:
http://img525.imageshack.us/img525/4272/machete2010dvdripengfxg.jpg




Vui Xuân cùng hài tết Xuân Hinh 2011 bản đẹp




letitbit.net Tet_Xuan_Hinh_2011.dat.html

avatar
kutekute90
Mem Mới
Mem Mới

Tham gia : 01/03/2011
Bài viết : 1


Xem lý lịch thành viên

Về Đầu Trang Go down

topic Re: Tuyển tập phim Rạp mới [2010-2011] 1 link dow duy nhất

Bài gửi by dechec9 on 01/03/11, 01:22 pm

đc đấy ! mỗi cái chất lượng chưa đc đẹp ! thankss !
avatar
dechec9
Mem cấp 4
Mem cấp 4

Tham gia : 07/12/2009
Bài viết : 311


Xem lý lịch thành viên

Về Đầu Trang Go down

Xem chủ đề cũ hơn Xem chủ đề mới hơn Về Đầu Trang


 
Permissions in this forum:
Bạn không có quyền trả lời bài viết